  0
SECTION
  2
HEADER
  9
$ACADVER
  1
AC1012
  9
$DWGCODEPAGE
  3
ANSI_1252
  9
$INSBASE
 10
0.0
 20
0.0
 30
0.0
  9
$EXTMIN
 10
1.91716472537608
 20
3.410302837095579
 30
0.0
  9
$EXTMAX
 10
10.05795341732275
 20
8.9227044862536
 30
0.0
  9
$LIMMIN
 10
0.0
 20
0.0
  9
$LIMMAX
 10
12.0
 20
9.0
  9
$ORTHOMODE
 70
     0
  9
$REGENMODE
 70
     1
  9
$FILLMODE
 70
     1
  9
$QTEXTMODE
 70
     0
  9
$MIRRTEXT
 70
     1
  9
$DRAGMODE
 70
     2
  9
$LTSCALE
 40
1.0
  9
$OSMODE
 70
     0
  9
$ATTMODE
 70
     1
  9
$TEXTSIZE
 40
0.2
  9
$TRACEWID
 40
0.05
  9
$TEXTSTYLE
  7
STANDARD
  9
$CLAYER
  8
0
  9
$CELTYPE
  6
BYLAYER
  9
$CECOLOR
 62
   256
  9
$CELTSCALE
 40
1.0
  9
$DELOBJ
 70
     1
  9
$DISPSILH
 70
     0
  9
$DIMSCALE
 40
1.0
  9
$DIMASZ
 40
0.18
  9
$DIMEXO
 40
0.0625
  9
$DIMDLI
 40
0.38
  9
$DIMRND
 40
0.0
  9
$DIMDLE
 40
0.0
  9
$DIMEXE
 40
0.18
  9
$DIMTP
 40
0.0
  9
$DIMTM
 40
0.0
  9
$DIMTXT
 40
0.18
  9
$DIMCEN
 40
0.09
  9
$DIMTSZ
 40
0.0
  9
$DIMTOL
 70
     0
  9
$DIMLIM
 70
     0
  9
$DIMTIH
 70
     1
  9
$DIMTOH
 70
     1
  9
$DIMSE1
 70
     0
  9
$DIMSE2
 70
     0
  9
$DIMTAD
 70
     0
  9
$DIMZIN
 70
     0
  9
$DIMBLK
  1

  9
$DIMASO
 70
     1
  9
$DIMSHO
 70
     1
  9
$DIMPOST
  1

  9
$DIMAPOST
  1

  9
$DIMALT
 70
     0
  9
$DIMALTD
 70
     2
  9
$DIMALTF
 40
25.4
  9
$DIMLFAC
 40
1.0
  9
$DIMTOFL
 70
     0
  9
$DIMTVP
 40
0.0
  9
$DIMTIX
 70
     0
  9
$DIMSOXD
 70
     0
  9
$DIMSAH
 70
     0
  9
$DIMBLK1
  1

  9
$DIMBLK2
  1

  9
$DIMSTYLE
  2
STANDARD
  9
$DIMCLRD
 70
     0
  9
$DIMCLRE
 70
     0
  9
$DIMCLRT
 70
     0
  9
$DIMTFAC
 40
1.0
  9
$DIMGAP
 40
0.09
  9
$DIMJUST
 70
     0
  9
$DIMSD1
 70
     0
  9
$DIMSD2
 70
     0
  9
$DIMTOLJ
 70
     1
  9
$DIMTZIN
 70
     0
  9
$DIMALTZ
 70
     0
  9
$DIMALTTZ
 70
     0
  9
$DIMFIT
 70
     3
  9
$DIMUPT
 70
     0
  9
$DIMUNIT
 70
     2
  9
$DIMDEC
 70
     2
  9
$DIMTDEC
 70
     2
  9
$DIMALTU
 70
     2
  9
$DIMALTTD
 70
     2
  9
$DIMTXSTY
  7
STANDARD
  9
$DIMAUNIT
 70
     0
  9
$LUNITS
 70
     2
  9
$LUPREC
 70
     4
  9
$SKETCHINC
 40
0.1
  9
$FILLETRAD
 40
0.5
  9
$AUNITS
 70
     0
  9
$AUPREC
 70
     0
  9
$MENU
  1
.
  9
$ELEVATION
 40
0.0
  9
$PELEVATION
 40
0.0
  9
$THICKNESS
 40
0.0
  9
$LIMCHECK
 70
     0
  9
$BLIPMODE
 70
     0
  9
$CHAMFERA
 40
0.5
  9
$CHAMFERB
 40
0.5
  9
$CHAMFERC
 40
1.0
  9
$CHAMFERD
 40
0.0
  9
$SKPOLY
 70
     0
  9
$TDCREATE
 40
2452178.452025694
  9
$TDUPDATE
 40
2452646.416670254
  9
$TDINDWG
 40
0.0018969907
  9
$TDUSRTIMER
 40
0.0018969907
  9
$USRTIMER
 70
     1
  9
$ANGBASE
 50
0.0
  9
$ANGDIR
 70
     0
  9
$PDMODE
 70
     0
  9
$PDSIZE
 40
0.0
  9
$PLINEWID
 40
0.0
  9
$COORDS
 70
     1
  9
$SPLFRAME
 70
     0
  9
$SPLINETYPE
 70
     6
  9
$SPLINESEGS
 70
     8
  9
$ATTDIA
 70
     1
  9
$ATTREQ
 70
     1
  9
$HANDLING
 70
-16383
  9
$HANDSEED
  5
301
  9
$SURFTAB1
 70
     6
  9
$SURFTAB2
 70
     6
  9
$SURFTYPE
 70
     6
  9
$SURFU
 70
     6
  9
$SURFV
 70
     6
  9
$UCSNAME
  2

  9
$UCSORG
 10
0.0
 20
0.0
 30
0.0
  9
$UCSXDIR
 10
1.0
 20
0.0
 30
0.0
  9
$UCSYDIR
 10
0.0
 20
1.0
 30
0.0
  9
$PUCSNAME
  2

  9
$PUCSORG
 10
0.0
 20
0.0
 30
0.0
  9
$PUCSXDIR
 10
1.0
 20
0.0
 30
0.0
  9
$PUCSYDIR
 10
0.0
 20
1.0
 30
0.0
  9
$USERI1
 70
     0
  9
$USERI2
 70
     0
  9
$USERI3
 70
     0
  9
$USERI4
 70
     0
  9
$USERI5
 70
     0
  9
$USERR1
 40
0.0
  9
$USERR2
 40
0.0
  9
$USERR3
 40
0.0
  9
$USERR4
 40
0.0
  9
$USERR5
 40
0.0
  9
$WORLDVIEW
 70
     1
  9
$SHADEDGE
 70
     3
  9
$SHADEDIF
 70
    70
  9
$TILEMODE
 70
     1
  9
$MAXACTVP
 70
    64
  9
$PINSBASE
 10
0.0
 20
0.0
 30
0.0
  9
$PLIMCHECK
 70
     0
  9
$PEXTMIN
 10
1.000000000000000E+20
 20
1.000000000000000E+20
 30
1.000000000000000E+20
  9
$PEXTMAX
 10
-1.000000000000000E+20
 20
-1.000000000000000E+20
 30
-1.000000000000000E+20
  9
$PLIMMIN
 10
0.0
 20
0.0
  9
$PLIMMAX
 10
12.0
 20
9.0
  9
$UNITMODE
 70
     0
  9
$VISRETAIN
 70
     1
  9
$PLINEGEN
 70
     0
  9
$PSLTSCALE
 70
     1
  9
$TREEDEPTH
 70
  3020
  9
$PICKSTYLE
 70
     1
  9
$CMLSTYLE
  2
STANDARD
  9
$CMLJUST
 70
     0
  9
$CMLSCALE
 40
1.0
  9
$SAVEIMAGES
 70
     1
  0
ENDSEC
  0
SECTION
  2
CLASSES
  0
CLASS
  1
ACDBDICTIONARYWDFLT
  2
AcDbDictionaryWithDefault
  3
AutoCAD 2000
 90
    32768
280
     0
281
     0
  0
CLASS
  1
ACDBPLACEHOLDER
  2
AcDbPlaceHolder
  3
AutoCAD 2000
 90
    32768
280
     0
281
     0
  0
CLASS
  1
LAYOUT
  2
AcDbLayout
  3
AutoCAD 2000
 90
    32768
280
     0
281
     0
  0
CLASS
  1
LONG_TRANSACTION
  2
AcDbLongTransaction
  3
AutoCAD 2000
 90
    32768
280
     0
281
     0
  0
CLASS
  1
LWPOLYLINE
  2
AcDbPolyline
  3
AutoCAD 2000
 90
    32768
280
     0
281
     1
  0
CLASS
  1
HATCH
  2
AcDbHatch
  3
AutoCAD 2000
 90
    32768
280
     0
281
     1
  0
CLASS
  1
XRECORD
  2
AcDbXrecord
  3
AutoCAD 2000
 90
    32768
280
     0
281
     0
  0
ENDSEC
  0
SECTION
  2
TABLES
  0
TABLE
  2
VPORT
  5
8
330
0
100
AcDbSymbolTable
 70
     3
  0
VPORT
  5
233
330
8
100
AcDbSymbolTableRecord
100
AcDbViewportTableRecord
  2
*ACTIVE
 70
     0
 10
0.0
 20
0.0
 11
1.0
 21
1.0
 12
6.504122236047774
 22
6.154448882880413
 13
0.0
 23
0.0
 14
0.5
 24
0.5
 15
0.5
 25
0.5
 16
0.0
 26
0.0
 36
1.0
 17
0.0
 27
0.0
 37
0.0
 40
9.000383547507469
 41
1.462515883100381
 42
50.0
 43
0.0
 44
0.0
 50
0.0
 51
0.0
 71
     0
 72
   100
 73
     1
 74
     3
 75
     0
 76
     0
 77
     0
 78
     0
  0
ENDTAB
  0
TABLE
  2
LTYPE
  5
5
330
0
100
AcDbSymbolTable
 70
     1
  0
LTYPE
  5
14
330
5
100
AcDbSymbolTableRecord
100
AcDbLinetypeTableRecord
  2
BYBLOCK
 70
     0
  3

 72
    65
 73
     0
 40
0.0
  0
LTYPE
  5
15
330
5
100
AcDbSymbolTableRecord
100
AcDbLinetypeTableRecord
  2
BYLAYER
 70
     0
  3

 72
    65
 73
     0
 40
0.0
  0
LTYPE
  5
16
330
5
100
AcDbSymbolTableRecord
100
AcDbLinetypeTableRecord
  2
CONTINUOUS
 70
     0
  3
Solid line
 72
    65
 73
     0
 40
0.0
  0
ENDTAB
  0
TABLE
  2
LAYER
  5
2
330
0
100
AcDbSymbolTable
 70
     4
  0
LAYER
  5
10
330
2
100
AcDbSymbolTableRecord
100
AcDbLayerTableRecord
  2
0
 70
     0
 62
     7
  6
CONTINUOUS
  0
LAYER
  5
34
330
2
100
AcDbSymbolTableRecord
100
AcDbLayerTableRecord
  2
L
 70
     0
 62
     7
  6
CONTINUOUS
  0
LAYER
  5
45
330
2
100
AcDbSymbolTableRecord
100
AcDbLayerTableRecord
  2
DEFPOINTS
 70
     0
 62
     7
  6
CONTINUOUS
  0
LAYER
  5
88
330
2
100
AcDbSymbolTableRecord
100
AcDbLayerTableRecord
  2
TX
 70
     0
 62
   150
  6
CONTINUOUS
  0
ENDTAB
  0
TABLE
  2
STYLE
  5
3
330
0
100
AcDbSymbolTable
 70
     3
  0
STYLE
  5
11
330
3
100
AcDbSymbolTableRecord
100
AcDbTextStyleTableRecord
  2
STANDARD
 70
     0
 40
0.0
 41
1.0
 50
0.0
 71
     0
 42
0.2
  3
txt
  4

  0
STYLE
  5
35
330
3
100
AcDbSymbolTableRecord
100
AcDbTextStyleTableRecord
  2
REG
 70
     0
 40
0.0
 41
1.0
 50
0.0
 71
     0
 42
0.09375
  3
E:\R13\com\fonts\ARCHITXT.SHX
  4

  0
STYLE
  5
36
330
3
100
AcDbSymbolTableRecord
100
AcDbTextStyleTableRecord
  2
DIMTXT
 70
     0
 40
0.0
 41
1.0
 50
0.0
 71
     0
 42
1.125
  3
archt.shx
  4

  0
ENDTAB
  0
TABLE
  2
VIEW
  5
6
330
0
100
AcDbSymbolTable
 70
     0
  0
ENDTAB
  0
TABLE
  2
UCS
  5
7
330
0
100
AcDbSymbolTable
 70
     0
  0
ENDTAB
  0
TABLE
  2
APPID
  5
9
330
0
100
AcDbSymbolTable
 70
     1
  0
APPID
  5
12
330
9
100
AcDbSymbolTableRecord
100
AcDbRegAppTableRecord
  2
ACAD
 70
     0
  0
ENDTAB
  0
TABLE
  2
DIMSTYLE
  5
A
330
0
100
AcDbSymbolTable
 70
     6
  0
DIMSTYLE
105
27
102
{ACAD_REACTORS
330
C1
330
CF
102
}
330
A
100
AcDbSymbolTableRecord
100
AcDbDimStyleTableRecord
  2
STANDARD
 70
     0
  3

  4

  5

  6

  7

 40
1.0
 41
0.18
 42
0.0625
 43
0.38
 44
0.18
 45
0.0
 46
0.0
 47
0.0
 48
0.0
140
0.18
141
0.09
142
0.0
143
25.4
144
1.0
145
0.0
146
1.0
147
0.09
 71
     0
 72
     0
 73
     1
 74
     1
 75
     0
 76
     0
 77
     0
 78
     0
170
     0
171
     2
172
     0
173
     0
174
     0
175
     0
176
     0
177
     0
178
     0
270
     2
271
     2
272
     2
273
     2
274
     2
340
11
275
     0
280
     0
281
     0
282
     0
283
     1
284
     0
285
     0
286
     0
287
     3
288
     0
  0
DIMSTYLE
105
37
330
A
100
AcDbSymbolTableRecord
100
AcDbDimStyleTableRecord
  2
1
 70
     0
  3

  4

  5

  6

  7

 40
1.0
 41
1.125
 42
0.5
 43
0.375
 44
1.19921875
 45
0.0
 46
0.5
 47
0.0
 48
0.0
140
1.125
141
0.125
142
0.0
143
25.4
144
1.0
145
0.0
146
0.8
147
0.5625
 71
     0
 72
     0
 73
     0
 74
     0
 75
     0
 76
     0
 77
     1
 78
     3
170
     0
171
     2
172
     1
173
     0
174
     1
175
     0
176
   133
177
   133
178
   150
270
     2
271
     3
272
     3
273
     2
274
     2
340
36
275
     0
280
     0
281
     0
282
     0
283
     1
284
     0
285
     0
286
     0
287
     4
288
     0
  0
DIMSTYLE
105
38
330
A
100
AcDbSymbolTableRecord
100
AcDbDimStyleTableRecord
  2
1$2
 70
     0
  3

  4

  5
DOTSMALL
  6

  7

 40
1.0
 41
1.5
 42
0.5
 43
0.375
 44
1.19921875
 45
0.0
 46
0.5
 47
0.0
 48
0.0
140
0.75
141
0.125
142
0.0
143
25.4
144
1.0
145
0.0
146
0.8
147
0.5625
 71
     0
 72
     0
 73
     0
 74
     0
 75
     0
 76
     0
 77
     1
 78
     3
170
     0
171
     2
172
     1
173
     0
174
     1
175
     0
176
   133
177
   133
178
   150
270
     2
271
     3
272
     3
273
     2
274
     2
340
36
275
     0
280
     0
281
     0
282
     0
283
     1
284
     0
285
     0
286
     0
287
     4
288
     0
  0
DIMSTYLE
105
39
330
A
100
AcDbSymbolTableRecord
100
AcDbDimStyleTableRecord
  2
1$4
 70
     0
  3

  4

  5

  6

  7
DOTSMALL
 40
1.0
 41
1.5
 42
0.5
 43
0.375
 44
1.19921875
 45
0.0
 46
0.5
 47
0.0
 48
0.0
140
0.75
141
0.125
142
0.0
143
25.4
144
1.0
145
0.0
146
0.8
147
0.5625
 71
     0
 72
     0
 73
     0
 74
     0
 75
     0
 76
     0
 77
     1
 78
     3
170
     0
171
     2
172
     1
173
     1
174
     1
175
     0
176
   133
177
   133
178
   150
270
     2
271
     3
272
     3
273
     2
274
     2
340
36
275
     0
280
     0
281
     0
282
     0
283
     1
284
     0
285
     0
286
     0
287
     4
288
     0
  0
DIMSTYLE
105
3A
330
A
100
AcDbSymbolTableRecord
100
AcDbDimStyleTableRecord
  2
1$3
 70
     0
  3

  4

  5
DOTSMALL
  6

  7

 40
1.0
 41
1.5
 42
0.5
 43
0.375
 44
1.19921875
 45
0.0
 46
0.5
 47
0.0
 48
0.0
140
0.75
141
0.125
142
0.0
143
25.4
144
1.0
145
0.0
146
0.8
147
0.5625
 71
     0
 72
     0
 73
     0
 74
     0
 75
     0
 76
     0
 77
     1
 78
     3
170
     0
171
     2
172
     1
173
     0
174
     1
175
     0
176
   133
177
   133
178
   150
270
     2
271
     3
272
     3
273
     2
274
     2
340
36
275
     0
280
     0
281
     0
282
     0
283
     1
284
     0
285
     0
286
     0
287
     4
288
     0
  0
DIMSTYLE
105
3B
330
A
100
AcDbSymbolTableRecord
100
AcDbDimStyleTableRecord
  2
1$7
 70
     0
  3

  4

  5

  6

  7

 40
1.0
 41
1.0
 42
0.5
 43
0.375
 44
1.19921875
 45
0.0
 46
0.5
 47
0.0
 48
0.0
140
0.75
141
0.125
142
0.0
143
25.4
144
1.0
145
0.0
146
0.8
147
0.5625
 71
     0
 72
     0
 73
     0
 74
     0
 75
     0
 76
     0
 77
     1
 78
     3
170
     0
171
     2
172
     1
173
     0
174
     1
175
     0
176
   133
177
   133
178
   150
270
     2
271
     3
272
     3
273
     2
274
     2
340
36
275
     0
280
     0
281
     0
282
     0
283
     1
284
     0
285
     0
286
     0
287
     4
288
     0
  0
ENDTAB
  0
TABLE
  2
BLOCK_RECORD
  5
1
330
0
100
AcDbSymbolTable
 70
     5
  0
BLOCK_RECORD
  5
1F
102
{ACAD_XDICTIONARY
360
236
102
}
330
1
100
AcDbSymbolTableRecord
100
AcDbBlockTableRecord
  2
*MODEL_SPACE
  0
BLOCK_RECORD
  5
1B
102
{ACAD_XDICTIONARY
360
234
102
}
330
1
100
AcDbSymbolTableRecord
100
AcDbBlockTableRecord
  2
*PAPER_SPACE
  0
BLOCK_RECORD
  5
2B
330
1
100
AcDbSymbolTableRecord
100
AcDbBlockTableRecord
  2
_DOT
  0
BLOCK_RECORD
  5
30
330
1
100
AcDbSymbolTableRecord
100
AcDbBlockTableRecord
  2
_DOTSMALL
  0
BLOCK_RECORD
  5
C2
330
1
100
AcDbSymbolTableRecord
100
AcDbBlockTableRecord
  2
*D3
  0
BLOCK_RECORD
  5
D0
330
1
100
AcDbSymbolTableRecord
100
AcDbBlockTableRecord
  2
*D4
  0
ENDTAB
  0
ENDSEC
  0
SECTION
  2
BLOCKS
  0
BLOCK
  5
20
330
1F
100
AcDbEntity
  8
0
100
AcDbBlockBegin
  2
*MODEL_SPACE
 70
     0
 10
0.0
 20
0.0
 30
0.0
  3
*MODEL_SPACE
  1

  0
ENDBLK
  5
21
330
1F
100
AcDbEntity
  8
0
100
AcDbBlockEnd
  0
BLOCK
  5
1C
330
1B
100
AcDbEntity
 67
     1
  8
0
100
AcDbBlockBegin
  2
*PAPER_SPACE
 70
     0
 10
0.0
 20
0.0
 30
0.0
  3
*PAPER_SPACE
  1

  0
ENDBLK
  5
1D
330
1B
100
AcDbEntity
 67
     1
  8
0
100
AcDbBlockEnd
  0
BLOCK
  5
2E
330
2B
100
AcDbEntity
  8
0
100
AcDbBlockBegin
  2
_DOT
 70
     0
 10
0.0
 20
0.0
 30
0.0
  3
_DOT
  1

  0
POLYLINE
  5
2C
330
2B
100
AcDbEntity
  8
L
 62
     0
100
AcDb2dPolyline
 66
     1
 10
0.0
 20
0.0
 30
0.0
 70
     1
 40
0.5
 41
0.5
  0
VERTEX
  5
23A
330
2C
100
AcDbEntity
  8
L
 62
     0
100
AcDbVertex
100
AcDb2dVertex
 10
-0.25
 20
0.0
 30
0.0
 42
1.0
  0
VERTEX
  5
23B
330
2C
100
AcDbEntity
  8
L
 62
     0
100
AcDbVertex
100
AcDb2dVertex
 10
0.25
 20
0.0
 30
0.0
 42
1.0
  0
SEQEND
  5
23C
330
2C
100
AcDbEntity
  8
L
 62
     0
  0
LINE
  5
2D
330
2B
100
AcDbEntity
  8
L
 62
     0
100
AcDbLine
 10
-0.5
 20
0.0
 30
0.0
 11
-1.0
 21
0.0
 31
0.0
  0
ENDBLK
  5
2F
330
2B
100
AcDbEntity
  8
0
100
AcDbBlockEnd
  0
BLOCK
  5
32
330
30
100
AcDbEntity
  8
0
 48
0.116666
100
AcDbBlockBegin
  2
_DOTSMALL
 70
     0
 10
0.0
 20
0.0
 30
0.0
  3
_DOTSMALL
  1

  0
POLYLINE
  5
31
330
30
100
AcDbEntity
  8
0
  6
BYBLOCK
 62
     0
100
AcDb2dPolyline
 66
     1
 10
0.0
 20
0.0
 30
0.0
 70
     1
 40
0.5
 41
0.5
  0
VERTEX
  5
23D
330
31
100
AcDbEntity
  8
0
  6
BYBLOCK
 62
     0
100
AcDbVertex
100
AcDb2dVertex
 10
-0.0625
 20
0.0
 30
0.0
 42
1.0
  0
VERTEX
  5
23E
330
31
100
AcDbEntity
  8
0
  6
BYBLOCK
 62
     0
100
AcDbVertex
100
AcDb2dVertex
 10
0.0625
 20
0.0
 30
0.0
 42
1.0
  0
SEQEND
  5
23F
330
31
100
AcDbEntity
  8
0
  6
BYBLOCK
 62
     0
  0
ENDBLK
  5
33
330
30
100
AcDbEntity
  8
0
 48
0.116666
100
AcDbBlockEnd
  0
BLOCK
  5
CD
330
C2
100
AcDbEntity
  8
0
100
AcDbBlockBegin
  2
*D3
 70
     1
 10
0.0
 20
0.0
 30
0.0
  3
*D3
  1

  0
LINE
  5
E7
330
C2
100
AcDbEntity
  8
0
 62
     0
100
AcDbLine
 10
2.989888395066575
 20
4.834940870871279
 30
0.0
 11
2.989888395066576
 21
8.9227044862536
 31
0.0
  0
LINE
  5
E8
330
C2
100
AcDbEntity
  8
0
 62
     0
100
AcDbLine
 10
10.05482415611411
 20
4.834940870871277
 30
0.0
 11
10.05482415611411
 21
8.9227044862536
 31
0.0
  0
LINE
  5
E9
330
C2
100
AcDbEntity
  8
0
 62
     0
100
AcDbLine
 10
3.169888395066576
 20
8.7427044862536
 30
0.0
 11
6.177356275590344
 21
8.7427044862536
 31
0.0
  0
LINE
  5
EA
330
C2
100
AcDbEntity
  8
0
 62
     0
100
AcDbLine
 10
9.874824156114112
 20
8.7427044862536
 30
0.0
 11
6.867356275590344
 21
8.7427044862536
 31
0.0
  0
SOLID
  5
EB
330
C2
100
AcDbEntity
  8
0
 62
     0
100
AcDbTrace
 10
3.169888395066576
 20
8.7727044862536
 30
0.0
 11
3.169888395066576
 21
8.712704486253601
 31
0.0
 12
2.989888395066576
 22
8.7427044862536
 32
0.0
 13
2.989888395066576
 23
8.7427044862536
 33
0.0
  0
SOLID
  5
EC
330
C2
100
AcDbEntity
  8
0
 62
     0
100
AcDbTrace
 10
9.874824156114112
 20
8.7727044862536
 30
0.0
 11
9.874824156114112
 21
8.712704486253601
 31
0.0
 12
10.05482415611411
 22
8.7427044862536
 32
0.0
 13
10.05482415611411
 23
8.7427044862536
 33
0.0
  0
MTEXT
  5
ED
330
C2
100
AcDbEntity
  8
0
 62
     0
100
AcDbMText
 10
6.522356275590344
 20
8.7427044862536
 30
0.0
 40
0.18
 41
0.0
 71
     5
 72
     1
  1
\A1;7.06
1001
ACAD
1000
MTEXTBEGIN
1070
    73
1070
     1
1070
    44
1040
1.0
1070
    74
1070
     0
1000
MTEXTEND
  0
POINT
  5
EE
330
C2
100
AcDbEntity
  8
DEFPOINTS
 62
     0
100
AcDbPoint
 10
2.989888395066575
 20
4.772440870871279
 30
0.0
  0
POINT
  5
EF
330
C2
100
AcDbEntity
  8
DEFPOINTS
 62
     0
100
AcDbPoint
 10
10.05482415611411
 20
4.772440870871277
 30
0.0
  0
POINT
  5
F0
330
C2
100
AcDbEntity
  8
DEFPOINTS
 62
     0
100
AcDbPoint
 10
10.05482415611411
 20
8.7427044862536
 30
0.0
  0
ENDBLK
  5
CE
330
C2
100
AcDbEntity
  8
0
100
AcDbBlockEnd
  0
BLOCK
  5
DB
330
D0
100
AcDbEntity
  8
0
100
AcDbBlockBegin
  2
*D4
 70
     1
 10
0.0
 20
0.0
 30
0.0
  3
*D4
  1

  0
LINE
  5
D1
330
D0
100
AcDbEntity
  8
0
 62
     0
100
AcDbLine
 10
2.942388258678281
 20
4.757376904986486
 30
0.0
 11
2.007164725376081
 21
4.757376904986486
 31
0.0
  0
LINE
  5
D2
330
D0
100
AcDbEntity
  8
0
 62
     0
100
AcDbLine
 10
6.459856275590343
 20
8.28987690498641
 30
0.0
 11
2.007164725376082
 21
8.289876904986412
 31
0.0
  0
LINE
  5
D3
330
D0
100
AcDbEntity
  8
0
 62
     0
100
AcDbLine
 10
2.187164725376081
 20
4.937376904986486
 30
0.0
 11
2.187164725376081
 21
6.343626904986449
 31
0.0
  0
LINE
  5
D4
330
D0
100
AcDbEntity
  8
0
 62
     0
100
AcDbLine
 10
2.187164725376081
 20
8.109876904986412
 30
0.0
 11
2.187164725376081
 21
6.703626904986449
 31
0.0
  0
SOLID
  5
D5
330
D0
100
AcDbEntity
  8
0
 62
     0
100
AcDbTrace
 10
2.157164725376081
 20
4.937376904986486
 30
0.0
 11
2.21716472537608
 21
4.937376904986486
 31
0.0
 12
2.187164725376081
 22
4.757376904986486
 32
0.0
 13
2.187164725376081
 23
4.757376904986486
 33
0.0
  0
SOLID
  5
D6
330
D0
100
AcDbEntity
  8
0
 62
     0
100
AcDbTrace
 10
2.157164725376082
 20
8.109876904986412
 30
0.0
 11
2.217164725376081
 21
8.109876904986412
 31
0.0
 12
2.187164725376081
 22
8.289876904986412
 32
0.0
 13
2.187164725376081
 23
8.289876904986412
 33
0.0
  0
MTEXT
  5
D7
330
D0
100
AcDbEntity
  8
0
 62
     0
100
AcDbMText
 10
2.18716472537608
 20
6.52362690498645
 30
0.0
 40
0.18
 41
0.0
 71
     5
 72
     1
  1
\A1;3.53
1001
ACAD
1000
MTEXTBEGIN
1070
    73
1070
     1
1070
    44
1040
1.0
1070
    74
1070
     0
1000
MTEXTEND
  0
POINT
  5
D8
330
D0
100
AcDbEntity
  8
DEFPOINTS
 62
     0
100
AcDbPoint
 10
3.004888258678281
 20
4.757376904986486
 30
0.0
  0
POINT
  5
D9
330
D0
100
AcDbEntity
  8
DEFPOINTS
 62
     0
100
AcDbPoint
 10
6.522356275590343
 20
8.28987690498641
 30
0.0
  0
POINT
  5
DA
330
D0
100
AcDbEntity
  8
DEFPOINTS
 62
     0
100
AcDbPoint
 10
2.187164725376081
 20
8.289876904986412
 30
0.0
  0
ENDBLK
  5
DC
330
D0
100
AcDbEntity
  8
0
100
AcDbBlockEnd
  0
ENDSEC
  0
SECTION
  2
ENTITIES
  0
POLYLINE
  5
BD
330
1F
100
AcDbEntity
  8
L
 62
     5
 48
0.233332
100
AcDb2dPolyline
 66
     1
 10
0.0
 20
0.0
 30
0.0
 40
0.028125
 41
0.028125
  0
VERTEX
  5
240
330
BD
100
AcDbEntity
  8
L
 62
     5
 48
0.233332
100
AcDbVertex
100
AcDb2dVertex
 10
3.052355164745428
 20
3.601021438397312
 30
0.0
  0
VERTEX
  5
241
330
BD
100
AcDbEntity
  8
L
 62
     5
 48
0.233332
100
AcDbVertex
100
AcDb2dVertex
 10
7.23393813888331
 20
3.601021438397312
 30
0.0
  0
SEQEND
  5
242
330
BD
100
AcDbEntity
  8
L
 62
     5
 48
0.233332
  0
TEXT
  5
BE
330
1F
100
AcDbEntity
  8
L
 62
     3
 48
0.233332
100
AcDbText
 10
3.146091007426413
 20
3.694757281078354
 30
0.0
 40
0.140625
  1
SERIES 7 - 7" RADIUS POST #1500
  7
REG
100
AcDbText
  0
TEXT
  5
BF
330
1F
100
AcDbEntity
  8
TX
 48
0.233332
100
AcDbText
 10
3.146091007426413
 20
3.41353559571627
 30
0.0
 40
0.09375
  1
SCALE : FULL SIZE
  7
REG
 11
3.146091007426413
 21
3.50728559571627
 31
0.0
100
AcDbText
 73
     3
  0
DIMENSION
  5
C1
330
1F
100
AcDbEntity
  8
0
100
AcDbDimension
  2
*D3
 10
10.05482415611411
 20
8.7427044862536
 30
0.0
 11
6.522356275590344
 21
8.7427044862536
 31
0.0
 70
    32
  3
STANDARD
100
AcDbAlignedDimension
 13
2.989888395066575
 23
4.772440870871279
 33
0.0
 14
10.05482415611411
 24
4.772440870871277
 34
0.0
100
AcDbRotatedDimension
  0
DIMENSION
  5
CF
330
1F
100
AcDbEntity
  8
0
100
AcDbDimension
  2
*D4
 10
2.187164725376081
 20
8.289876904986412
 30
0.0
 11
2.18716472537608
 21
6.52362690498645
 31
0.0
 70
    32
  3
STANDARD
100
AcDbAlignedDimension
 13
3.004888258678281
 23
4.757376904986486
 33
0.0
 14
6.522356275590343
 24
8.28987690498641
 34
0.0
 50
90.0
100
AcDbRotatedDimension
  0
POLYLINE
  5
176
330
1F
100
AcDbEntity
  8
L
 62
     5
100
AcDb2dPolyline
 66
     1
 10
0.0
 20
0.0
 30
0.0
 70
     1
  0
VERTEX
  5
243
330
176
100
AcDbEntity
  8
L
 62
     5
100
AcDbVertex
100
AcDb2dVertex
 10
8.71787753303298
 20
6.40114695846242
 30
0.0
 42
-0.0983614586802997
  0
VERTEX
  5
244
330
176
100
AcDbEntity
  8
L
 62
     5
100
AcDbVertex
100
AcDb2dVertex
 10
8.71399437471674
 20
6.468058601097482
 30
0.0
 42
-1.00000000000153
  0
VERTEX
  5
245
330
176
100
AcDbEntity
  8
L
 62
     5
100
AcDbVertex
100
AcDb2dVertex
 10
8.807099134496455
 20
6.455116278804232
 30
0.0
 42
2.046398478152006
  0
VERTEX
  5
246
330
176
100
AcDbEntity
  8
L
 62
     5
100
AcDbVertex
100
AcDb2dVertex
 10
8.913684275590521
 20
6.516653238706516
 30
0.0
 42
-1.000000000000454
  0
VERTEX
  5
247
330
176
100
AcDbEntity
  8
L
 62
     5
100
AcDbVertex
100
AcDb2dVertex
 10
8.949028275590366
 20
6.60375548703558
 30
0.0
 42
-0.1247228466325175
  0
VERTEX
  5
248
330
176
100
AcDbEntity
  8
L
 62
     5
100
AcDbVertex
100
AcDb2dVertex
 10
9.017120859655523
 20
6.553727557558955
 30
0.0
 42
0.4427405243995722
  0
VERTEX
  5
249
330
176
100
AcDbEntity
  8
L
 62
     5
100
AcDbVertex
100
AcDb2dVertex
 10
9.039305768123174
 20
6.552657349960909
 30
0.0
  0
VERTEX
  5
24A
330
176
100
AcDbEntity
  8
L
 62
     5
100
AcDbVertex
100
AcDb2dVertex
 10
9.18822359872667
 20
6.701575180564345
 30
0.0
 42
0.3801596258446414
  0
VERTEX
  5
24B
330
176
100
AcDbEntity
  8
L
 62
     5
100
AcDbVertex
100
AcDb2dVertex
 10
9.197987534988664
 20
6.867365912950783
 30
0.0
 42
0.4849364005140763
  0
VERTEX
  5
24C
330
176
100
AcDbEntity
  8
L
 62
     5
100
AcDbVertex
100
AcDb2dVertex
 10
3.846725016192131
 20
6.867365912950878
 30
0.0
 42
0.3801596258446414
  0
VERTEX
  5
24D
330
176
100
AcDbEntity
  8
L
 62
     5
100
AcDbVertex
100
AcDb2dVertex
 10
3.856488952454217
 20
6.701575180564319
 30
0.0
  0
VERTEX
  5
24E
330
176
100
AcDbEntity
  8
L
 62
     5
100
AcDbVertex
100
AcDb2dVertex
 10
4.00540678305769
 20
6.55265734996086
 30
0.0
 42
0.4427405243992492
  0
VERTEX
  5
24F
330
176
100
AcDbEntity
  8
L
 62
     5
100
AcDbVertex
100
AcDb2dVertex
 10
4.027591691525431
 20
6.553727557558922
 30
0.0
 42
-0.1247228466325175
  0
VERTEX
  5
250
330
176
100
AcDbEntity
  8
L
 62
     5
100
AcDbVertex
100
AcDb2dVertex
 10
4.095684275590498
 20
6.603755487035704
 30
0.0
 42
-1.000000000000455
  0
VERTEX
  5
251
330
176
100
AcDbEntity
  8
L
 62
     5
100
AcDbVertex
100
AcDb2dVertex
 10
4.131028275590434
 20
6.516653238706415
 30
0.0
 42
2.046398478152009
  0
VERTEX
  5
252
330
176
100
AcDbEntity
  8
L
 62
     5
100
AcDbVertex
100
AcDb2dVertex
 10
4.237613416684422
 20
6.455116278804227
 30
0.0
 42
-1.000000000001197
  0
VERTEX
  5
253
330
176
100
AcDbEntity
  8
L
 62
     5
100
AcDbVertex
100
AcDb2dVertex
 10
4.330718176464134
 20
6.468058601097507
 30
0.0
 42
-0.0983614586803644
  0
VERTEX
  5
254
330
176
100
AcDbEntity
  8
L
 62
     5
100
AcDbVertex
100
AcDb2dVertex
 10
4.326835018147953
 20
6.401146958462414
 30
0.0
 42
0.4907427149872156
  0
VERTEX
  5
255
330
176
100
AcDbEntity
  8
L
 62
     5
100
AcDbVertex
100
AcDb2dVertex
 10
4.34135351313839
 20
6.382376904986486
 30
0.0
  0
VERTEX
  5
256
330
176
100
AcDbEntity
  8
L
 62
     5
100
AcDbVertex
100
AcDb2dVertex
 10
8.703359038042524
 20
6.382376904986512
 30
0.0
 42
0.4907427149813313
  0
SEQEND
  5
257
330
176
100
AcDbEntity
  8
L
 62
     5
  0
POLYLINE
  5
19B
330
1F
100
AcDbEntity
  8
L
 62
     5
100
AcDb2dPolyline
 66
     1
 10
0.0
 20
0.0
 30
0.0
 70
     1
  0
VERTEX
  5
258
330
19B
100
AcDbEntity
  8
L
 62
     5
100
AcDbVertex
100
AcDb2dVertex
 10
4.334856275590343
 20
5.382376904986486
 30
0.0
 42
1.000000000000003
  0
VERTEX
  5
259
330
19B
100
AcDbEntity
  8
L
 62
     5
100
AcDbVertex
100
AcDb2dVertex
 10
4.334856275590343
 20
5.507376904986486
 30
0.0
  0
VERTEX
  5
25A
330
19B
100
AcDbEntity
  8
L
 62
     5
100
AcDbVertex
100
AcDb2dVertex
 10
4.272356275590343
 20
5.507376904986486
 30
0.0
 42
-0.4142135623730951
  0
VERTEX
  5
25B
330
19B
100
AcDbEntity
  8
L
 62
     5
100
AcDbVertex
100
AcDb2dVertex
 10
4.147356275590343
 20
5.632376904986486
 30
0.0
  0
VERTEX
  5
25C
330
19B
100
AcDbEntity
  8
L
 62
     5
100
AcDbVertex
100
AcDb2dVertex
 10
4.147356275590343
 20
5.757376904986486
 30
0.0
 42
-0.4142135623730951
  0
VERTEX
  5
25D
330
19B
100
AcDbEntity
  8
L
 62
     5
100
AcDbVertex
100
AcDb2dVertex
 10
4.272356275590343
 20
5.882376904986486
 30
0.0
  0
VERTEX
  5
25E
330
19B
100
AcDbEntity
  8
L
 62
     5
100
AcDbVertex
100
AcDb2dVertex
 10
4.334856275590343
 20
5.882376904986486
 30
0.0
 42
1.000000000000003
  0
VERTEX
  5
25F
330
19B
100
AcDbEntity
  8
L
 62
     5
100
AcDbVertex
100
AcDb2dVertex
 10
4.334856275590343
 20
6.007376904986486
 30
0.0
  0
VERTEX
  5
260
330
19B
100
AcDbEntity
  8
L
 62
     5
100
AcDbVertex
100
AcDb2dVertex
 10
4.272356275590343
 20
6.007376904986486
 30
0.0
 42
-0.4142135623730951
  0
VERTEX
  5
261
330
19B
100
AcDbEntity
  8
L
 62
     5
100
AcDbVertex
100
AcDb2dVertex
 10
4.147356275590343
 20
6.132376904986486
 30
0.0
  0
VERTEX
  5
262
330
19B
100
AcDbEntity
  8
L
 62
     5
100
AcDbVertex
100
AcDb2dVertex
 10
4.147356275590343
 20
6.18138450965911
 30
0.0
  0
VERTEX
  5
263
330
19B
100
AcDbEntity
  8
L
 62
     5
100
AcDbVertex
100
AcDb2dVertex
 10
4.147356275590349
 20
6.18138450965911
 30
0.0
 42
0.2787942395850865
  0
VERTEX
  5
264
330
19B
100
AcDbEntity
  8
L
 62
     5
100
AcDbVertex
100
AcDb2dVertex
 10
4.080437083671163
 20
6.292071544729529
 30
0.0
  0
VERTEX
  5
265
330
19B
100
AcDbEntity
  8
L
 62
     5
100
AcDbVertex
100
AcDb2dVertex
 10
4.080437083671173
 20
6.29207154472955
 30
0.0
 42
-0.1538023288676753
  0
VERTEX
  5
266
330
19B
100
AcDbEntity
  8
L
 62
     5
100
AcDbVertex
100
AcDb2dVertex
 10
4.007566215258426
 20
6.365388314267798
 30
0.0
  0
VERTEX
  5
267
330
19B
100
AcDbEntity
  8
L
 62
     5
100
AcDbVertex
100
AcDb2dVertex
 10
4.007566215258324
 20
6.365388314267745
 30
0.0
 42
0.0772187366337912
  0
VERTEX
  5
268
330
19B
100
AcDbEntity
  8
L
 62
     5
100
AcDbVertex
100
AcDb2dVertex
 10
3.984915274874576
 20
6.396372162847306
 30
0.0
  0
VERTEX
  5
269
330
19B
100
AcDbEntity
  8
L
 62
     5
100
AcDbVertex
100
AcDb2dVertex
 10
3.984915274874627
 20
6.396372162847356
 30
0.0
  0
VERTEX
  5
26A
330
19B
100
AcDbEntity
  8
L
 62
     5
100
AcDbVertex
100
AcDb2dVertex
 10
3.815174745966576
 20
6.566112691755293
 30
0.0
  0
VERTEX
  5
26B
330
19B
100
AcDbEntity
  8
L
 62
     5
100
AcDbVertex
100
AcDb2dVertex
 10
3.815174745966448
 20
6.566112691755165
 30
0.0
 42
0.4844557861987952
  0
VERTEX
  5
26C
330
19B
100
AcDbEntity
  8
L
 62
     5
100
AcDbVertex
100
AcDb2dVertex
 10
3.620329053410566
 20
6.543236432420925
 30
0.0
  0
VERTEX
  5
26D
330
19B
100
AcDbEntity
  8
L
 62
     5
100
AcDbVertex
100
AcDb2dVertex
 10
3.62032905341073
 20
6.543236432420822
 30
0.0
 42
0.1194175586352654
  0
VERTEX
  5
26E
330
19B
100
AcDbEntity
  8
L
 62
     5
100
AcDbVertex
100
AcDb2dVertex
 10
3.124753366961297
 20
5.01689708777395
 30
0.0
  0
VERTEX
  5
26F
330
19B
100
AcDbEntity
  8
L
 62
     5
100
AcDbVertex
100
AcDb2dVertex
 10
3.124753366961257
 20
5.016897087773954
 30
0.0
 42
0.4367227831853363
  0
VERTEX
  5
270
330
19B
100
AcDbEntity
  8
L
 62
     5
100
AcDbVertex
100
AcDb2dVertex
 10
3.249390304181677
 20
4.882376904986512
 30
0.0
  0
VERTEX
  5
271
330
19B
100
AcDbEntity
  8
L
 62
     5
100
AcDbVertex
100
AcDb2dVertex
 10
3.249390304181677
 20
4.882376904986486
 30
0.0
  0
VERTEX
  5
272
330
19B
100
AcDbEntity
  8
L
 62
     5
100
AcDbVertex
100
AcDb2dVertex
 10
4.334856275590343
 20
4.882376904986486
 30
0.0
 42
1.000000000000003
  0
VERTEX
  5
273
330
19B
100
AcDbEntity
  8
L
 62
     5
100
AcDbVertex
100
AcDb2dVertex
 10
4.334856275590343
 20
5.007376904986486
 30
0.0
  0
VERTEX
  5
274
330
19B
100
AcDbEntity
  8
L
 62
     5
100
AcDbVertex
100
AcDb2dVertex
 10
4.272356275590343
 20
5.007376904986486
 30
0.0
 42
-0.4142135623730951
  0
VERTEX
  5
275
330
19B
100
AcDbEntity
  8
L
 62
     5
100
AcDbVertex
100
AcDb2dVertex
 10
4.147356275590343
 20
5.132376904986486
 30
0.0
  0
VERTEX
  5
276
330
19B
100
AcDbEntity
  8
L
 62
     5
100
AcDbVertex
100
AcDb2dVertex
 10
4.147356275590343
 20
5.257376904986486
 30
0.0
 42
-0.4142135623730951
  0
VERTEX
  5
277
330
19B
100
AcDbEntity
  8
L
 62
     5
100
AcDbVertex
100
AcDb2dVertex
 10
4.272356275590343
 20
5.382376904986486
 30
0.0
  0
SEQEND
  5
278
330
19B
100
AcDbEntity
  8
L
 62
     5
  0
POLYLINE
  5
1DF
330
1F
100
AcDbEntity
  8
L
 62
     5
100
AcDb2dPolyline
 66
     1
 10
0.0
 20
0.0
 30
0.0
 70
     1
  0
VERTEX
  5
279
330
1DF
100
AcDbEntity
  8
L
 62
     5
100
AcDbVertex
100
AcDb2dVertex
 10
8.7723562755904
 20
6.147376904986472
 30
0.0
 42
-0.4142135623753149
  0
VERTEX
  5
27A
330
1DF
100
AcDbEntity
  8
L
 62
     5
100
AcDbVertex
100
AcDb2dVertex
 10
8.757356275590471
 20
6.13237690498643
 30
0.0
  0
VERTEX
  5
27B
330
1DF
100
AcDbEntity
  8
L
 62
     5
100
AcDbVertex
100
AcDb2dVertex
 10
8.757356275590471
 20
6.132376904986486
 30
0.0
  0
VERTEX
  5
27C
330
1DF
100
AcDbEntity
  8
L
 62
     5
100
AcDbVertex
100
AcDb2dVertex
 10
8.55335627559052
 20
6.132376904986486
 30
0.0
  0
VERTEX
  5
27D
330
1DF
100
AcDbEntity
  8
L
 62
     5
100
AcDbVertex
100
AcDb2dVertex
 10
8.55335627559052
 20
6.132376904986543
 30
0.0
 42
0.4142135623752433
  0
VERTEX
  5
27E
330
1DF
100
AcDbEntity
  8
L
 62
     5
100
AcDbVertex
100
AcDb2dVertex
 10
8.522356275590173
 20
6.101376904986423
 30
0.0
  0
VERTEX
  5
27F
330
1DF
100
AcDbEntity
  8
L
 62
     5
100
AcDbVertex
100
AcDb2dVertex
 10
8.522356275590343
 20
6.101376904986423
 30
0.0
  0
VERTEX
  5
280
330
1DF
100
AcDbEntity
  8
L
 62
     5
100
AcDbVertex
100
AcDb2dVertex
 10
8.522356275590343
 20
5.788376904986435
 30
0.0
  0
VERTEX
  5
281
330
1DF
100
AcDbEntity
  8
L
 62
     5
100
AcDbVertex
100
AcDb2dVertex
 10
8.52235627559023
 20
5.788376904986435
 30
0.0
 42
0.4142135623741692
  0
VERTEX
  5
282
330
1DF
100
AcDbEntity
  8
L
 62
     5
100
AcDbVertex
100
AcDb2dVertex
 10
8.55335627559052
 20
5.757376904986486
 30
0.0
  0
VERTEX
  5
283
330
1DF
100
AcDbEntity
  8
L
 62
     5
100
AcDbVertex
100
AcDb2dVertex
 10
8.757356275590471
 20
5.757376904986486
 30
0.0
  0
VERTEX
  5
284
330
1DF
100
AcDbEntity
  8
L
 62
     5
100
AcDbVertex
100
AcDb2dVertex
 10
8.757356275590471
 20
5.757376904986542
 30
0.0
 42
-0.4142135623753149
  0
VERTEX
  5
285
330
1DF
100
AcDbEntity
  8
L
 62
     5
100
AcDbVertex
100
AcDb2dVertex
 10
8.7723562755904
 20
5.7423769049865
 30
0.0
  0
VERTEX
  5
286
330
1DF
100
AcDbEntity
  8
L
 62
     5
100
AcDbVertex
100
AcDb2dVertex
 10
8.772356275590343
 20
5.7423769049865
 30
0.0
  0
VERTEX
  5
287
330
1DF
100
AcDbEntity
  8
L
 62
     5
100
AcDbVertex
100
AcDb2dVertex
 10
8.772356275590343
 20
5.647376904986472
 30
0.0
  0
VERTEX
  5
288
330
1DF
100
AcDbEntity
  8
L
 62
     5
100
AcDbVertex
100
AcDb2dVertex
 10
8.7723562755904
 20
5.647376904986472
 30
0.0
 42
-0.4142135623753149
  0
VERTEX
  5
289
330
1DF
100
AcDbEntity
  8
L
 62
     5
100
AcDbVertex
100
AcDb2dVertex
 10
8.757356275590471
 20
5.632376904986429
 30
0.0
  0
VERTEX
  5
28A
330
1DF
100
AcDbEntity
  8
L
 62
     5
100
AcDbVertex
100
AcDb2dVertex
 10
8.757356275590471
 20
5.632376904986486
 30
0.0
  0
VERTEX
  5
28B
330
1DF
100
AcDbEntity
  8
L
 62
     5
100
AcDbVertex
100
AcDb2dVertex
 10
8.55335627559052
 20
5.632376904986486
 30
0.0
  0
VERTEX
  5
28C
330
1DF
100
AcDbEntity
  8
L
 62
     5
100
AcDbVertex
100
AcDb2dVertex
 10
8.55335627559052
 20
5.632376904986543
 30
0.0
 42
0.4142135623752433
  0
VERTEX
  5
28D
330
1DF
100
AcDbEntity
  8
L
 62
     5
100
AcDbVertex
100
AcDb2dVertex
 10
8.522356275590173
 20
5.601376904986423
 30
0.0
  0
VERTEX
  5
28E
330
1DF
100
AcDbEntity
  8
L
 62
     5
100
AcDbVertex
100
AcDb2dVertex
 10
8.522356275590343
 20
5.601376904986423
 30
0.0
  0
VERTEX
  5
28F
330
1DF
100
AcDbEntity
  8
L
 62
     5
100
AcDbVertex
100
AcDb2dVertex
 10
8.522356275590343
 20
5.288376904986435
 30
0.0
  0
VERTEX
  5
290
330
1DF
100
AcDbEntity
  8
L
 62
     5
100
AcDbVertex
100
AcDb2dVertex
 10
8.52235627559023
 20
5.288376904986435
 30
0.0
 42
0.4142135623741692
  0
VERTEX
  5
291
330
1DF
100
AcDbEntity
  8
L
 62
     5
100
AcDbVertex
100
AcDb2dVertex
 10
8.55335627559052
 20
5.257376904986486
 30
0.0
  0
VERTEX
  5
292
330
1DF
100
AcDbEntity
  8
L
 62
     5
100
AcDbVertex
100
AcDb2dVertex
 10
8.757356275590471
 20
5.257376904986486
 30
0.0
  0
VERTEX
  5
293
330
1DF
100
AcDbEntity
  8
L
 62
     5
100
AcDbVertex
100
AcDb2dVertex
 10
8.757356275590471
 20
5.257376904986542
 30
0.0
 42
-0.4142135623753149
  0
VERTEX
  5
294
330
1DF
100
AcDbEntity
  8
L
 62
     5
100
AcDbVertex
100
AcDb2dVertex
 10
8.7723562755904
 20
5.2423769049865
 30
0.0
  0
VERTEX
  5
295
330
1DF
100
AcDbEntity
  8
L
 62
     5
100
AcDbVertex
100
AcDb2dVertex
 10
8.772356275590343
 20
5.2423769049865
 30
0.0
  0
VERTEX
  5
296
330
1DF
100
AcDbEntity
  8
L
 62
     5
100
AcDbVertex
100
AcDb2dVertex
 10
8.772356275590343
 20
5.147376904986472
 30
0.0
  0
VERTEX
  5
297
330
1DF
100
AcDbEntity
  8
L
 62
     5
100
AcDbVertex
100
AcDb2dVertex
 10
8.7723562755904
 20
5.147376904986472
 30
0.0
 42
-0.4142135623753149
  0
VERTEX
  5
298
330
1DF
100
AcDbEntity
  8
L
 62
     5
100
AcDbVertex
100
AcDb2dVertex
 10
8.757356275590471
 20
5.132376904986429
 30
0.0
  0
VERTEX
  5
299
330
1DF
100
AcDbEntity
  8
L
 62
     5
100
AcDbVertex
100
AcDb2dVertex
 10
8.757356275590471
 20
5.132376904986486
 30
0.0
  0
VERTEX
  5
29A
330
1DF
100
AcDbEntity
  8
L
 62
     5
100
AcDbVertex
100
AcDb2dVertex
 10
8.537356275590443
 20
5.132376904986486
 30
0.0
  0
VERTEX
  5
29B
330
1DF
100
AcDbEntity
  8
L
 62
     5
100
AcDbVertex
100
AcDb2dVertex
 10
8.537356275590443
 20
5.132376904986543
 30
0.0
 42
0.414213562373095
  0
VERTEX
  5
29C
330
1DF
100
AcDbEntity
  8
L
 62
     5
100
AcDbVertex
100
AcDb2dVertex
 10
8.5223562755904
 20
5.1173769049865
 30
0.0
  0
VERTEX
  5
29D
330
1DF
100
AcDbEntity
  8
L
 62
     5
100
AcDbVertex
100
AcDb2dVertex
 10
8.522356275590343
 20
5.1173769049865
 30
0.0
  0
VERTEX
  5
29E
330
1DF
100
AcDbEntity
  8
L
 62
     5
100
AcDbVertex
100
AcDb2dVertex
 10
8.522356275590343
 20
4.772376904986472
 30
0.0
  0
VERTEX
  5
29F
330
1DF
100
AcDbEntity
  8
L
 62
     5
100
AcDbVertex
100
AcDb2dVertex
 10
8.5223562755904
 20
4.772376904986472
 30
0.0
 42
0.4142135623730951
  0
VERTEX
  5
2A0
330
1DF
100
AcDbEntity
  8
L
 62
     5
100
AcDbVertex
100
AcDb2dVertex
 10
8.537356275590443
 20
4.757376904986429
 30
0.0
  0
VERTEX
  5
2A1
330
1DF
100
AcDbEntity
  8
L
 62
     5
100
AcDbVertex
100
AcDb2dVertex
 10
8.537356275590443
 20
4.757376904986486
 30
0.0
  0
VERTEX
  5
2A2
330
1DF
100
AcDbEntity
  8
L
 62
     5
100
AcDbVertex
100
AcDb2dVertex
 10
10.03982429250263
 20
4.757376904986486
 30
0.0
  0
VERTEX
  5
2A3
330
1DF
100
AcDbEntity
  8
L
 62
     5
100
AcDbVertex
100
AcDb2dVertex
 10
10.03982429250263
 20
4.757376904986494
 30
0.0
 42
0.4154631300261945
  0
VERTEX
  5
2A4
330
1DF
100
AcDbEntity
  8
L
 62
     5
100
AcDbVertex
100
AcDb2dVertex
 10
10.05482415611417
 20
4.772440870871278
 30
0.0
  0
VERTEX
  5
2A5
330
1DF
100
AcDbEntity
  8
L
 62
     5
100
AcDbVertex
100
AcDb2dVertex
 10
10.05482415611411
 20
4.772440870871277
 30
0.0
 42
0.995744661546248
  0
VERTEX
  5
2A6
330
1DF
100
AcDbEntity
  8
L
 62
     5
100
AcDbVertex
100
AcDb2dVertex
 10
2.989888395066575
 20
4.77244087087128
 30
0.0
  0
VERTEX
  5
2A7
330
1DF
100
AcDbEntity
  8
L
 62
     5
100
AcDbVertex
100
AcDb2dVertex
 10
2.989888395066736
 20
4.772440870871278
 30
0.0
 42
0.4154631300261945
  0
VERTEX
  5
2A8
330
1DF
100
AcDbEntity
  8
L
 62
     5
100
AcDbVertex
100
AcDb2dVertex
 10
3.004888258678281
 20
4.757376904986493
 30
0.0
  0
VERTEX
  5
2A9
330
1DF
100
AcDbEntity
  8
L
 62
     5
100
AcDbVertex
100
AcDb2dVertex
 10
3.004888258678281
 20
4.757376904986486
 30
0.0
  0
VERTEX
  5
2AA
330
1DF
100
AcDbEntity
  8
L
 62
     5
100
AcDbVertex
100
AcDb2dVertex
 10
4.507356275590471
 20
4.757376904986486
 30
0.0
  0
VERTEX
  5
2AB
330
1DF
100
AcDbEntity
  8
L
 62
     5
100
AcDbVertex
100
AcDb2dVertex
 10
4.507356275590471
 20
4.757376904986429
 30
0.0
 42
0.4142135623753149
  0
VERTEX
  5
2AC
330
1DF
100
AcDbEntity
  8
L
 62
     5
100
AcDbVertex
100
AcDb2dVertex
 10
4.5223562755904
 20
4.772376904986472
 30
0.0
  0
VERTEX
  5
2AD
330
1DF
100
AcDbEntity
  8
L
 62
     5
100
AcDbVertex
100
AcDb2dVertex
 10
4.522356275590343
 20
4.772376904986472
 30
0.0
  0
VERTEX
  5
2AE
330
1DF
100
AcDbEntity
  8
L
 62
     5
100
AcDbVertex
100
AcDb2dVertex
 10
4.522356275590343
 20
5.101376904986423
 30
0.0
  0
VERTEX
  5
2AF
330
1DF
100
AcDbEntity
  8
L
 62
     5
100
AcDbVertex
100
AcDb2dVertex
 10
4.5223562755904
 20
5.101376904986423
 30
0.0
 42
0.4142135623741692
  0
VERTEX
  5
2B0
330
1DF
100
AcDbEntity
  8
L
 62
     5
100
AcDbVertex
100
AcDb2dVertex
 10
4.491356275590394
 20
5.132376904986543
 30
0.0
  0
VERTEX
  5
2B1
330
1DF
100
AcDbEntity
  8
L
 62
     5
100
AcDbVertex
100
AcDb2dVertex
 10
4.491356275590394
 20
5.132376904986486
 30
0.0
  0
VERTEX
  5
2B2
330
1DF
100
AcDbEntity
  8
L
 62
     5
100
AcDbVertex
100
AcDb2dVertex
 10
4.287356275590443
 20
5.132376904986486
 30
0.0
  0
VERTEX
  5
2B3
330
1DF
100
AcDbEntity
  8
L
 62
     5
100
AcDbVertex
100
AcDb2dVertex
 10
4.287356275590443
 20
5.132376904986429
 30
0.0
 42
-0.4142135623730951
  0
VERTEX
  5
2B4
330
1DF
100
AcDbEntity
  8
L
 62
     5
100
AcDbVertex
100
AcDb2dVertex
 10
4.2723562755904
 20
5.147376904986472
 30
0.0
  0
VERTEX
  5
2B5
330
1DF
100
AcDbEntity
  8
L
 62
     5
100
AcDbVertex
100
AcDb2dVertex
 10
4.272356275590343
 20
5.147376904986472
 30
0.0
  0
VERTEX
  5
2B6
330
1DF
100
AcDbEntity
  8
L
 62
     5
100
AcDbVertex
100
AcDb2dVertex
 10
4.272356275590343
 20
5.2423769049865
 30
0.0
  0
VERTEX
  5
2B7
330
1DF
100
AcDbEntity
  8
L
 62
     5
100
AcDbVertex
100
AcDb2dVertex
 10
4.2723562755904
 20
5.2423769049865
 30
0.0
 42
-0.4142135623730951
  0
VERTEX
  5
2B8
330
1DF
100
AcDbEntity
  8
L
 62
     5
100
AcDbVertex
100
AcDb2dVertex
 10
4.287356275590443
 20
5.257376904986543
 30
0.0
  0
VERTEX
  5
2B9
330
1DF
100
AcDbEntity
  8
L
 62
     5
100
AcDbVertex
100
AcDb2dVertex
 10
4.287356275590443
 20
5.257376904986486
 30
0.0
  0
VERTEX
  5
2BA
330
1DF
100
AcDbEntity
  8
L
 62
     5
100
AcDbVertex
100
AcDb2dVertex
 10
4.491356275590394
 20
5.257376904986486
 30
0.0
 42
0.4142135623730951
  0
VERTEX
  5
2BB
330
1DF
100
AcDbEntity
  8
L
 62
     5
100
AcDbVertex
100
AcDb2dVertex
 10
4.522356275590343
 20
5.288376904986435
 30
0.0
  0
VERTEX
  5
2BC
330
1DF
100
AcDbEntity
  8
L
 62
     5
100
AcDbVertex
100
AcDb2dVertex
 10
4.522356275590343
 20
5.601376904986423
 30
0.0
  0
VERTEX
  5
2BD
330
1DF
100
AcDbEntity
  8
L
 62
     5
100
AcDbVertex
100
AcDb2dVertex
 10
4.5223562755904
 20
5.601376904986423
 30
0.0
 42
0.4142135623741692
  0
VERTEX
  5
2BE
330
1DF
100
AcDbEntity
  8
L
 62
     5
100
AcDbVertex
100
AcDb2dVertex
 10
4.491356275590394
 20
5.632376904986543
 30
0.0
  0
VERTEX
  5
2BF
330
1DF
100
AcDbEntity
  8
L
 62
     5
100
AcDbVertex
100
AcDb2dVertex
 10
4.491356275590394
 20
5.632376904986486
 30
0.0
  0
VERTEX
  5
2C0
330
1DF
100
AcDbEntity
  8
L
 62
     5
100
AcDbVertex
100
AcDb2dVertex
 10
4.287356275590443
 20
5.632376904986486
 30
0.0
  0
VERTEX
  5
2C1
330
1DF
100
AcDbEntity
  8
L
 62
     5
100
AcDbVertex
100
AcDb2dVertex
 10
4.287356275590443
 20
5.632376904986429
 30
0.0
 42
-0.4142135623730951
  0
VERTEX
  5
2C2
330
1DF
100
AcDbEntity
  8
L
 62
     5
100
AcDbVertex
100
AcDb2dVertex
 10
4.2723562755904
 20
5.647376904986472
 30
0.0
  0
VERTEX
  5
2C3
330
1DF
100
AcDbEntity
  8
L
 62
     5
100
AcDbVertex
100
AcDb2dVertex
 10
4.272356275590343
 20
5.647376904986472
 30
0.0
  0
VERTEX
  5
2C4
330
1DF
100
AcDbEntity
  8
L
 62
     5
100
AcDbVertex
100
AcDb2dVertex
 10
4.272356275590343
 20
5.7423769049865
 30
0.0
  0
VERTEX
  5
2C5
330
1DF
100
AcDbEntity
  8
L
 62
     5
100
AcDbVertex
100
AcDb2dVertex
 10
4.2723562755904
 20
5.7423769049865
 30
0.0
 42
-0.4142135623730951
  0
VERTEX
  5
2C6
330
1DF
100
AcDbEntity
  8
L
 62
     5
100
AcDbVertex
100
AcDb2dVertex
 10
4.287356275590443
 20
5.757376904986543
 30
0.0
  0
VERTEX
  5
2C7
330
1DF
100
AcDbEntity
  8
L
 62
     5
100
AcDbVertex
100
AcDb2dVertex
 10
4.287356275590443
 20
5.757376904986486
 30
0.0
  0
VERTEX
  5
2C8
330
1DF
100
AcDbEntity
  8
L
 62
     5
100
AcDbVertex
100
AcDb2dVertex
 10
4.491356275590394
 20
5.757376904986486
 30
0.0
 42
0.4142135623730951
  0
VERTEX
  5
2C9
330
1DF
100
AcDbEntity
  8
L
 62
     5
100
AcDbVertex
100
AcDb2dVertex
 10
4.522356275590343
 20
5.788376904986435
 30
0.0
  0
VERTEX
  5
2CA
330
1DF
100
AcDbEntity
  8
L
 62
     5
100
AcDbVertex
100
AcDb2dVertex
 10
4.522356275590343
 20
6.101376904986423
 30
0.0
  0
VERTEX
  5
2CB
330
1DF
100
AcDbEntity
  8
L
 62
     5
100
AcDbVertex
100
AcDb2dVertex
 10
4.5223562755904
 20
6.101376904986423
 30
0.0
 42
0.4142135623741692
  0
VERTEX
  5
2CC
330
1DF
100
AcDbEntity
  8
L
 62
     5
100
AcDbVertex
100
AcDb2dVertex
 10
4.491356275590394
 20
6.132376904986543
 30
0.0
  0
VERTEX
  5
2CD
330
1DF
100
AcDbEntity
  8
L
 62
     5
100
AcDbVertex
100
AcDb2dVertex
 10
4.491356275590394
 20
6.132376904986486
 30
0.0
  0
VERTEX
  5
2CE
330
1DF
100
AcDbEntity
  8
L
 62
     5
100
AcDbVertex
100
AcDb2dVertex
 10
4.287356275590443
 20
6.132376904986486
 30
0.0
  0
VERTEX
  5
2CF
330
1DF
100
AcDbEntity
  8
L
 62
     5
100
AcDbVertex
100
AcDb2dVertex
 10
4.287356275590443
 20
6.132376904986429
 30
0.0
 42
-0.4142135623730951
  0
VERTEX
  5
2D0
330
1DF
100
AcDbEntity
  8
L
 62
     5
100
AcDbVertex
100
AcDb2dVertex
 10
4.2723562755904
 20
6.147376904986472
 30
0.0
  0
VERTEX
  5
2D1
330
1DF
100
AcDbEntity
  8
L
 62
     5
100
AcDbVertex
100
AcDb2dVertex
 10
4.272356275590343
 20
6.147376904986472
 30
0.0
  0
VERTEX
  5
2D2
330
1DF
100
AcDbEntity
  8
L
 62
     5
100
AcDbVertex
100
AcDb2dVertex
 10
4.272356275590343
 20
6.2423769049865
 30
0.0
  0
VERTEX
  5
2D3
330
1DF
100
AcDbEntity
  8
L
 62
     5
100
AcDbVertex
100
AcDb2dVertex
 10
4.2723562755904
 20
6.2423769049865
 30
0.0
 42
-0.4142135623730951
  0
VERTEX
  5
2D4
330
1DF
100
AcDbEntity
  8
L
 62
     5
100
AcDbVertex
100
AcDb2dVertex
 10
4.287356275590443
 20
6.257376904986543
 30
0.0
  0
VERTEX
  5
2D5
330
1DF
100
AcDbEntity
  8
L
 62
     5
100
AcDbVertex
100
AcDb2dVertex
 10
4.287356275590443
 20
6.257376904986486
 30
0.0
  0
VERTEX
  5
2D6
330
1DF
100
AcDbEntity
  8
L
 62
     5
100
AcDbVertex
100
AcDb2dVertex
 10
6.262356275590352
 20
6.257376904986486
 30
0.0
  0
VERTEX
  5
2D7
330
1DF
100
AcDbEntity
  8
L
 62
     5
100
AcDbVertex
100
AcDb2dVertex
 10
6.272356275590343
 20
6.267376904986477
 30
0.0
  0
VERTEX
  5
2D8
330
1DF
100
AcDbEntity
  8
L
 62
     5
100
AcDbVertex
100
AcDb2dVertex
 10
6.282356275590334
 20
6.257376904986486
 30
0.0
  0
VERTEX
  5
2D9
330
1DF
100
AcDbEntity
  8
L
 62
     5
100
AcDbVertex
100
AcDb2dVertex
 10
6.762356275590352
 20
6.257376904986486
 30
0.0
  0
VERTEX
  5
2DA
330
1DF
100
AcDbEntity
  8
L
 62
     5
100
AcDbVertex
100
AcDb2dVertex
 10
6.772356275590343
 20
6.267376904986477
 30
0.0
  0
VERTEX
  5
2DB
330
1DF
100
AcDbEntity
  8
L
 62
     5
100
AcDbVertex
100
AcDb2dVertex
 10
6.782356275590334
 20
6.257376904986486
 30
0.0
  0
VERTEX
  5
2DC
330
1DF
100
AcDbEntity
  8
L
 62
     5
100
AcDbVertex
100
AcDb2dVertex
 10
8.757356275590471
 20
6.257376904986486
 30
0.0
  0
VERTEX
  5
2DD
330
1DF
100
AcDbEntity
  8
L
 62
     5
100
AcDbVertex
100
AcDb2dVertex
 10
8.757356275590471
 20
6.257376904986543
 30
0.0
 42
-0.4142135623753149
  0
VERTEX
  5
2DE
330
1DF
100
AcDbEntity
  8
L
 62
     5
100
AcDbVertex
100
AcDb2dVertex
 10
8.7723562755904
 20
6.2423769049865
 30
0.0
  0
VERTEX
  5
2DF
330
1DF
100
AcDbEntity
  8
L
 62
     5
100
AcDbVertex
100
AcDb2dVertex
 10
8.772356275590343
 20
6.2423769049865
 30
0.0
  0
SEQEND
  5
2E0
330
1DF
100
AcDbEntity
  8
L
 62
     5
  0
POLYLINE
  5
1EB
330
1F
100
AcDbEntity
  8
L
 62
     5
100
AcDb2dPolyline
 66
     1
 10
0.0
 20
0.0
 30
0.0
 70
     1
  0
VERTEX
  5
2E1
330
1EB
100
AcDbEntity
  8
L
 62
     5
100
AcDbVertex
100
AcDb2dVertex
 10
9.059797276306287
 20
6.396372162847356
 30
0.0
  0
VERTEX
  5
2E2
330
1EB
100
AcDbEntity
  8
L
 62
     5
100
AcDbVertex
100
AcDb2dVertex
 10
9.059797276306337
 20
6.396372162847306
 30
0.0
 42
0.0772187366337911
  0
VERTEX
  5
2E3
330
1EB
100
AcDbEntity
  8
L
 62
     5
100
AcDbVertex
100
AcDb2dVertex
 10
9.03714633592236
 20
6.365388314267864
 30
0.0
 42
-0.153802328867544
  0
VERTEX
  5
2E4
330
1EB
100
AcDbEntity
  8
L
 62
     5
100
AcDbVertex
100
AcDb2dVertex
 10
8.96427546750945
 20
6.29207154472967
 30
0.0
  0
VERTEX
  5
2E5
330
1EB
100
AcDbEntity
  8
L
 62
     5
100
AcDbVertex
100
AcDb2dVertex
 10
8.964275467509523
 20
6.29207154472953
 30
0.0
 42
0.2787942395850864
  0
VERTEX
  5
2E6
330
1EB
100
AcDbEntity
  8
L
 62
     5
100
AcDbVertex
100
AcDb2dVertex
 10
8.897356275590338
 20
6.18138450965911
 30
0.0
  0
VERTEX
  5
2E7
330
1EB
100
AcDbEntity
  8
L
 62
     5
100
AcDbVertex
100
AcDb2dVertex
 10
8.897356275590343
 20
6.18138450965911
 30
0.0
  0
VERTEX
  5
2E8
330
1EB
100
AcDbEntity
  8
L
 62
     5
100
AcDbVertex
100
AcDb2dVertex
 10
8.897356275590343
 20
6.132376904986486
 30
0.0
 42
-0.4142135623730951
  0
VERTEX
  5
2E9
330
1EB
100
AcDbEntity
  8
L
 62
     5
100
AcDbVertex
100
AcDb2dVertex
 10
8.772356275590343
 20
6.007376904986486
 30
0.0
  0
VERTEX
  5
2EA
330
1EB
100
AcDbEntity
  8
L
 62
     5
100
AcDbVertex
100
AcDb2dVertex
 10
8.709856275590343
 20
6.007376904986486
 30
0.0
 42
1.000000000000003
  0
VERTEX
  5
2EB
330
1EB
100
AcDbEntity
  8
L
 62
     5
100
AcDbVertex
100
AcDb2dVertex
 10
8.709856275590343
 20
5.882376904986486
 30
0.0
  0
VERTEX
  5
2EC
330
1EB
100
AcDbEntity
  8
L
 62
     5
100
AcDbVertex
100
AcDb2dVertex
 10
8.772356275590343
 20
5.882376904986486
 30
0.0
 42
-0.4142135623730951
  0
VERTEX
  5
2ED
330
1EB
100
AcDbEntity
  8
L
 62
     5
100
AcDbVertex
100
AcDb2dVertex
 10
8.897356275590343
 20
5.757376904986486
 30
0.0
  0
VERTEX
  5
2EE
330
1EB
100
AcDbEntity
  8
L
 62
     5
100
AcDbVertex
100
AcDb2dVertex
 10
8.897356275590343
 20
5.632376904986486
 30
0.0
 42
-0.4142135623730951
  0
VERTEX
  5
2EF
330
1EB
100
AcDbEntity
  8
L
 62
     5
100
AcDbVertex
100
AcDb2dVertex
 10
8.772356275590343
 20
5.507376904986486
 30
0.0
  0
VERTEX
  5
2F0
330
1EB
100
AcDbEntity
  8
L
 62
     5
100
AcDbVertex
100
AcDb2dVertex
 10
8.709856275590343
 20
5.507376904986486
 30
0.0
 42
1.000000000000003
  0
VERTEX
  5
2F1
330
1EB
100
AcDbEntity
  8
L
 62
     5
100
AcDbVertex
100
AcDb2dVertex
 10
8.709856275590343
 20
5.382376904986486
 30
0.0
  0
VERTEX
  5
2F2
330
1EB
100
AcDbEntity
  8
L
 62
     5
100
AcDbVertex
100
AcDb2dVertex
 10
8.772356275590343
 20
5.382376904986486
 30
0.0
 42
-0.4142135623730951
  0
VERTEX
  5
2F3
330
1EB
100
AcDbEntity
  8
L
 62
     5
100
AcDbVertex
100
AcDb2dVertex
 10
8.897356275590343
 20
5.257376904986486
 30
0.0
  0
VERTEX
  5
2F4
330
1EB
100
AcDbEntity
  8
L
 62
     5
100
AcDbVertex
100
AcDb2dVertex
 10
8.897356275590343
 20
5.132376904986486
 30
0.0
 42
-0.4142135623730951
  0
VERTEX
  5
2F5
330
1EB
100
AcDbEntity
  8
L
 62
     5
100
AcDbVertex
100
AcDb2dVertex
 10
8.772356275590343
 20
5.007376904986486
 30
0.0
  0
VERTEX
  5
2F6
330
1EB
100
AcDbEntity
  8
L
 62
     5
100
AcDbVertex
100
AcDb2dVertex
 10
8.709856275590343
 20
5.007376904986486
 30
0.0
 42
1.000000000000003
  0
VERTEX
  5
2F7
330
1EB
100
AcDbEntity
  8
L
 62
     5
100
AcDbVertex
100
AcDb2dVertex
 10
8.709856275590343
 20
4.882376904986486
 30
0.0
  0
VERTEX
  5
2F8
330
1EB
100
AcDbEntity
  8
L
 62
     5
100
AcDbVertex
100
AcDb2dVertex
 10
9.795322246999237
 20
4.882376904986486
 30
0.0
  0
VERTEX
  5
2F9
330
1EB
100
AcDbEntity
  8
L
 62
     5
100
AcDbVertex
100
AcDb2dVertex
 10
9.795322246999237
 20
4.882376904986512
 30
0.0
 42
0.436722783185919
  0
VERTEX
  5
2FA
330
1EB
100
AcDbEntity
  8
L
 62
     5
100
AcDbVertex
100
AcDb2dVertex
 10
9.919959184219882
 20
5.016897087773972
 30
0.0
  0
VERTEX
  5
2FB
330
1EB
100
AcDbEntity
  8
L
 62
     5
100
AcDbVertex
100
AcDb2dVertex
 10
9.919959184219845
 20
5.016897087773968
 30
0.0
 42
0.1194175586352729
  0
VERTEX
  5
2FC
330
1EB
100
AcDbEntity
  8
L
 62
     5
100
AcDbVertex
100
AcDb2dVertex
 10
9.42438349777035
 20
6.543236432420925
 30
0.0
  0
VERTEX
  5
2FD
330
1EB
100
AcDbEntity
  8
L
 62
     5
100
AcDbVertex
100
AcDb2dVertex
 10
9.424383497770183
 20
6.543236432420823
 30
0.0
 42
0.4844557861986923
  0
VERTEX
  5
2FE
330
1EB
100
AcDbEntity
  8
L
 62
     5
100
AcDbVertex
100
AcDb2dVertex
 10
9.229537805214352
 20
6.566112691755279
 30
0.0
  0
VERTEX
  5
2FF
330
1EB
100
AcDbEntity
  8
L
 62
     5
100
AcDbVertex
100
AcDb2dVertex
 10
9.229537805214338
 20
6.566112691755293
 30
0.0
  0
SEQEND
  5
300
330
1EB
100
AcDbEntity
  8
L
 62
     5
  0
ENDSEC
  0
SECTION
  2
OBJECTS
  0
DICTIONARY
  5
C
330
0
100
AcDbDictionary
  3
ACAD_GROUP
350
D
  3
ACAD_LAYOUT
350
1A
  3
ACAD_MLINESTYLE
350
17
  3
ACAD_PLOTSETTINGS
350
19
1001
ACAD
1000
TREAT_AS_HARD
1070
     0
  0
DICTIONARY
  5
236
330
1F
100
AcDbDictionary
  3
ACAD_LAYOUTSELFREF
350
237
  0
DICTIONARY
  5
234
330
1B
100
AcDbDictionary
  3
ACAD_LAYOUTSELFREF
350
235
  0
DICTIONARY
  5
D
102
{ACAD_REACTORS
330
C
102
}
330
C
100
AcDbDictionary
1001
ACAD
1000
TREAT_AS_HARD
1070
     0
  0
DICTIONARY
  5
1A
102
{ACAD_REACTORS
330
C
102
}
330
C
100
AcDbDictionary
1001
ACAD
1000
TREAT_AS_HARD
1070
     0
  0
DICTIONARY
  5
17
102
{ACAD_REACTORS
330
C
102
}
330
C
100
AcDbDictionary
  3
STANDARD
350
18
1001
ACAD
1000
TREAT_AS_HARD
1070
     0
  0
DICTIONARY
  5
19
102
{ACAD_REACTORS
330
C
102
}
330
C
100
AcDbDictionary
1001
ACAD
1000
TREAT_AS_HARD
1070
     0
  0
XRECORD
  5
237
102
{ACAD_REACTORS
330
236
102
}
330
236
100
AcDbXrecord
340
1F
  0
XRECORD
  5
235
102
{ACAD_REACTORS
330
234
102
}
330
234
100
AcDbXrecord
340
1B
  0
MLINESTYLE
  5
18
102
{ACAD_REACTORS
330
17
102
}
330
17
100
AcDbMlineStyle
  2
STANDARD
 70
     0
  3

 62
   256
 51
90.0
 52
90.0
 71
     2
 49
0.5
 62
   256
  6
BYLAYER
 49
-0.5
 62
   256
  6
BYLAYER
  0
ENDSEC
  0
EOF
